<?xml version="1.0" standalone="no"?>
<!DOCTYPE svg PUBLIC "-//W3C//DTD SVG 1.1//EN" "http://www.w3.org/Graphics/SVG/1.1/DTD/svg11.dtd" >
<svg xmlns="http://www.w3.org/2000/svg">
<metadata>Generated by IcoMoon</metadata>
<defs>
<font id="icomoon" horiz-adv-x="1024">
<font-face units-per-em="1024" ascent="960" descent="-64" />
<missing-glyph horiz-adv-x="1024" />
<glyph unicode="&#x20;" d="" horiz-adv-x="512" />
<glyph unicode="&#xe600;" d="M256 512h448v-64h-448v64zM448 704h64v-448h-64v448z" />
<glyph unicode="&#xe601;" d="M256 512h448v-64h-448v64z" />
<glyph unicode="&#xe602;" d="M256 480.018c0-53.019-42.981-96-96-96s-96 42.981-96 96c0 53.019 42.981 96 96 96s96-42.981 96-96zM640 480.018c0-53.019-42.981-96-96-96s-96 42.981-96 96c0 53.019 42.981 96 96 96s96-42.981 96-96zM1024.002 480.018c0-53.019-42.981-96-96-96s-96 42.981-96 96c0 53.019 42.981 96 96 96s96-42.981 96-96z" />
<glyph unicode="&#xe603;" d="M511.952 383.971h64.023v-128h-64.023v128zM447.952 447.971h64.023v-128h-64.023v128zM383.977 511.971h64.023v-128h-64.023v128zM319.977 576.018h64.023v-128h-64.023v128zM639.977 511.971h64.023v-128h-64.023v128zM703.977 576.018h64.023v-128h-64.023v128zM575.977 447.971h64.023v-128h-64.023v128z" />
<glyph unicode="&#xe604;" d="M511.952 576.018h64.023v-128h-64.023v128zM447.952 512.018h64.023v-128h-64.023v128zM383.977 448.018h64.023v-128h-64.023v128zM319.977 383.971h64.023v-128h-64.023v128zM639.977 448.018h64.023v-128h-64.023v128zM703.977 383.971h64.023v-128h-64.023v128zM575.977 512.018h64.023v-128h-64.023v128z" />
<glyph unicode="&#xe605;" d="M597.771 704.063l46.159-49.179-217.204-206.902 217.204-206.549-46.442-49.451-269.876 256z" />
<glyph unicode="&#xe606;" d="M319.989 448.007h128v-64.023h-128v64.023zM383.989 512.007h128v-64.023h-128v64.023zM447.989 575.984h128v-64.023h-128v64.023zM512.036 639.984h128v-64.023h-128v64.023zM576.036 703.959h128v-64.023h-128v64.023zM447.989 319.982h128v-64.023h-128v64.023zM512.036 255.982h128v-64.023h-128v64.023zM576.036 191.959h128v-64.023h-128v64.023zM383.989 383.984h128v-64.023h-128v64.023z" />
<glyph unicode="&#xe607;" d="M576.036 448.007h128v-64.023h-128v64.023zM512.036 512.007h128v-64.023h-128v64.023zM448.036 575.984h128v-64.023h-128v64.023zM383.989 639.984h128v-64.023h-128v64.023zM319.989 703.959h128v-64.023h-128v64.023zM448.036 319.982h128v-64.023h-128v64.023zM383.989 255.982h128v-64.023h-128v64.023zM319.989 191.959h128v-64.023h-128v64.023zM512.036 383.984h128v-64.023h-128v64.023z" />
<glyph unicode="&#xe608;" d="M901.063 832.016h-69.061v-192h-192v192h-256.002v-192h-192v192h-69.097c-32.53 0-58.903-26.373-58.903-58.903v-714.195c0-32.53 26.373-58.903 58.903-58.903h778.161c32.53 0 58.903 26.373 58.903 58.903v714.195c0 32.532-26.373 58.903-58.903 58.903zM832.002 63.497h-640.002v512h640.002v-512zM256 896.016h64v-192h-64v192zM704.002 896.016h64v-192h-64v192zM640.002 448.018h-256.002v-320h256.002v320zM576 192.005h-128v64.011h128v-64.011zM576 320.052h-128v64.011h128v-64.011z" />
<glyph unicode="&#xe609;" d="M256 511.971h128v-63.952h-128v63.952zM256 448.582h128v-64.519h-128v64.519zM320 576.018h128v-64h-128v64zM384 640.018h128v-64.143h-128v64.143zM448 704.063h128.002v-64.048h-128.002v64.048zM512 768.016h128.002v-63.952h-128.002v63.952zM576 832.016h128v-64h-128v64zM640.002 896.016h64v-64h-64v64zM320 384.063h128v-64.011h-128v64.011zM384 320.052h128v-64.036h-128v64.036zM448 256.016h128v-64.188h-128v64.188zM512 191.982h128v-64h-128v64zM576 127.982h128v-64h-128v64zM640 63.982h64v-63.964h-64v63.964z" />
<glyph unicode="&#xe60a;" d="M640.002 512.016h128v-127.952h-128v127.952zM576.002 576.018h128v-64h-128v64zM512 640.018h128.002v-64h-128.002v64zM448 704.063h128.002v-64h-128.002v64zM383.998 768.016h128.002v-64h-128.002v64zM319.998 832.016h128.002v-64h-128.002v64zM576 384.063h128.002v-64h-128.002v64zM512 320.052h128.002v-64h-128.002v64zM448 256.018h128.002v-64h-128.002v64zM383.998 191.982h128.002v-64h-128.002v64zM319.998 127.982h128.002v-64h-128.002v64zM319.998 63.982h64.002v-63.964h-64.002v63.964zM320 896.016h63.998v-64h-63.998v64z" />
<glyph unicode="&#xe60b;" d="M704 448.018c0-106.039-85.961-192-192-192s-192 85.961-192 192c0 106.039 85.961 192 192 192s192-85.961 192-192z" />
<glyph unicode="&#xe60c;" d="M768 448.023c0-141.407-114.615-256.041-256-256.041s-256 114.633-256 256.041c0 141.407 114.615 256.041 256 256.041s256-114.633 256-256.041z" />
<glyph unicode="&#xe60d;" d="M320 482.424l-64-69.664 199.612-187.469 241.841 350.727-79.292 51.963-176.708-258.265z" />
<glyph unicode="&#xe60e;" d="M246.621 547.557l-83.823-78.159 299.044-319.434 404.389 545.982-90.619 66.832-322.832-437.239z" />
<glyph unicode="&#xe60f;" d="M319.941 576.077h320.12v-320.118h-320.12v320.118z" />
<glyph unicode="&#xe610;" d="M255.984 704.023h512v-512h-512v512z" />
<glyph unicode="&#xe611;" d="M509 448h-66.526l-31.205 97.733h-186.549l-31.549-97.733h-63.44l148.827 448.197h83.673l146.77-448.197zM393.78 600.257l-75.787 239.7-75.785-239.702h151.572zM448-64h-319.95v64.018l237.124 320.045h-237.174v64h319.966v-64.011l-232.704-320.034h232.738v-64.018zM704.002 896.016h64v-960.018h-64v960.018zM640.002 127.982h64v-128h-64v128zM576.002 191.982h64v-128h-64v128zM768.002 127.982h64v-128h-64v128zM832.002 191.982h64v-128h-64v128z" />
<glyph unicode="&#xe612;" d="M960 896v-896h-896v896h896zM1024 960h-1024v-1024h1024v1024zM320 512.018h384.002v-64h-384.002v64zM384 448.018h256.002v-64h-256.002v64zM448 384.018h128.002v-64h-128.002v64z" />
<glyph unicode="&#xe613;" d="M64 896.016v-128l256-256v-320.036h192v67.7c-69.686 34.922-115.028 47.421-115.028 134.796 0 64.365 38.738 114.251 115.028 117.441v0.1l256.002 256v128h-704.002zM1019.469-61.735c-209.875 270.979-361.662 357.822-528.176 418.99-64.566 25.58-51.54 114.69 53.239 91.648 150.655-40.391 346.939-230.597 474.937-510.638zM1017.204 438.51c-0.011-0.041-260.001-163.874-441.201-455.059-42.525-79.58-130.336-36.168-79.657 39.256 195.124 287.053 520.881 415.767 520.858 415.803z" />
<glyph unicode="&#xe614;" d="M960 896v-896h-896v896h896zM1024 960h-1024v-1024h1024v1024zM704 63.982l-192 256.036h384.002zM288 613.444l-160 154.572h320zM896.002 896.016h64v-64h-64v64zM832.002 832.016h64v-64h-64v64zM768.002 768.016h64v-64h-64v64zM704.002 704.016h64v-64h-64v64zM640.002 640.018h64v-64h-64v64zM576.002 576.018h64v-64h-64v64zM512 512.018h64v-64h-64v64zM448 448h64v-64h-64v64zM384 384h64v-64h-64v64zM320 320h64v-64h-64v64zM256 256.018h64v-64h-64v64zM192 192.018h64v-64h-64v64zM128 128.018h64v-64h-64v64zM64 63.982h64v-64h-64v64zM256 704.016h64v-319.952h-64v319.952zM128 832.016h320v-64h-320v64z" />
<glyph unicode="&#xe615;" d="M960 896v-896h-896v896h896zM1024 960h-1024v-1024h1024v1024zM288 613.444l-160 154.572h320zM896.002 896.016h64v-64h-64v64zM832.002 832.016h64v-64h-64v64zM768.002 768.016h64v-64h-64v64zM704.002 704.016h64v-64h-64v64zM640.002 640.018h64v-64h-64v64zM576.002 576.018h64v-64h-64v64zM512 512.018h64v-64h-64v64zM448 448h64v-64h-64v64zM384 384h64v-64h-64v64zM320 320h64v-64h-64v64zM256 256.018h64v-64h-64v64zM192 192.018h64v-64h-64v64zM128 128.018h64v-64h-64v64zM64 63.982h64v-64h-64v64zM256 704.016h64v-319.952h-64v319.952zM128 832.016h320v-64h-320v64zM576 320.018h320v-64h-320v64zM704 512.018h64v-192h-64v192zM736 101.444l-160 154.574h320.002z" />
<glyph unicode="&#xe616;" d="M960 896v-896h-896v896h896zM1024 960h-1024v-1024h1024v1024zM288 613.444l-160 154.572h320zM896.002 896.016h64v-64h-64v64zM832.002 832.016h64v-64h-64v64zM768.002 768.016h64v-64h-64v64zM704.002 704.016h64v-64h-64v64zM640.002 640.018h64v-64h-64v64zM576.002 576.018h64v-64h-64v64zM512 512.018h64v-64h-64v64zM448 448h64v-64h-64v64zM384 384h64v-64h-64v64zM320 320h64v-64h-64v64zM256 256.018h64v-64h-64v64zM192 192.018h64v-64h-64v64zM128 128.018h64v-64h-64v64zM64 63.982h64v-64h-64v64zM256 704.016h64v-319.952h-64v319.952zM128 832.016h320v-64h-320v64zM576 319.982h320v-64h-320v64zM704 255.982h64v-192h-64v192zM736 474.554l-160-154.572h320.002z" />
<glyph unicode="&#xe617;" d="M256 480.018c0-53.019-42.981-96-96-96s-96 42.981-96 96c0 53.019 42.981 96 96 96s96-42.981 96-96zM640 480.018c0-53.019-42.981-96-96-96s-96 42.981-96 96c0 53.019 42.981 96 96 96s96-42.981 96-96zM1024.002 480.018c0-53.019-42.981-96-96-96s-96 42.981-96 96c0 53.019 42.981 96 96 96s96-42.981 96-96z" />
<glyph unicode="&#xe618;" d="M512.002 832.016c-212.077 0-384-171.923-384-384s171.923-384 384-384 384 171.923 384 384-171.923 384-384 384zM704 384.018h-384v128h384v-128z" />
<glyph unicode="&#xe619;" d="M960 896v-896h-896v896h896zM1024 960h-1024v-1024h1024v1024zM704 63.982l-192 256.036h384.002zM288 421.444l-160 154.574h320zM896.002 896.016h64v-64h-64v64zM832.002 832.016h64v-64h-64v64zM768.002 768.016h64v-64h-64v64zM704.002 704.016h64v-64h-64v64zM640.002 640.018h64v-64h-64v64zM576.002 576.018h64v-64h-64v64zM512 512.018h64v-64h-64v64zM448 448h64v-64h-64v64zM384 384h64v-64h-64v64zM320 320h64v-64h-64v64zM256 256.018h64v-64h-64v64zM192 192.018h64v-64h-64v64zM128 128.018h64v-64h-64v64zM64 63.982h64v-64h-64v64zM256 832.016h64v-192h-64v192zM128 640.018h320v-64h-320v64z" />
<glyph unicode="&#xe61a;" d="M960 896v-896h-896v896h896zM1024 960h-1024v-1024h1024v1024zM704 63.982l-192 256.036h384.002zM288 794.572l-160-154.572h320zM896.002 896.016h64v-64h-64v64zM832.002 832.016h64v-64h-64v64zM768.002 768.016h64v-64h-64v64zM704.002 704.016h64v-64h-64v64zM640.002 640.018h64v-64h-64v64zM576.002 576.018h64v-64h-64v64zM512 512.018h64v-64h-64v64zM448 448h64v-64h-64v64zM384 384h64v-64h-64v64zM320 320h64v-64h-64v64zM256 256.018h64v-64h-64v64zM192 192.018h64v-64h-64v64zM128 128.018h64v-64h-64v64zM64 63.982h64v-64h-64v64zM256 576h64v-192h-64v192zM128 640h320v-64h-320v64z" />
<glyph unicode="&#xe61b;" d="M509-64.134h-66.526l-31.205 97.733h-186.549l-31.549-97.733h-63.44l148.827 448.197h83.673l146.77-448.197zM393.78 88.123l-75.785 239.702-75.785-239.702h151.57zM448 448.066h-319.95v64.018l237.124 320.045h-237.174v64h319.966v-64.011l-232.704-320.036h232.738v-64.016zM704.002 896.016h64v-960.018h-64v960.018zM640.002 127.982h64v-128h-64v128zM576.002 191.982h64v-128h-64v128zM768.002 127.982h64v-128h-64v128zM832.002 191.982h64v-128h-64v128z" />
<glyph unicode="&#xe61c;" d="M192 447.971h192v-64.016h-192v64.016zM384 640.018h128v-448h-128v448zM512 575.971h64.002v-320h-64.002v320zM576.002 511.971h192v-192h-192v192zM768.002 575.971h64.002v-320h-64.002v320z" />
<glyph unicode="&#xe61d;" d="M192 704.005v-512h640.002v512h-640.002zM768 256.018h-512v320h512v-320z" />
<glyph unicode="&#xe61e;" d="M256 512.018h512.002v-128h-512.002v128z" />
<glyph unicode="&#xe61f;" d="M192 640.018v-512h512.002v512h-512.002zM640.002 192.029h-384.002v320h384.002v-320zM832.002 704.016v-447.998h-64l-0.036 447.998h-447.966v64h512.002z" />
<glyph unicode="&#xe620;" d="M448.095 255.998h64.016v-192h-64.016v192zM256.048 383.998h448v-128h-448v128zM320.095 447.998h320v-64.002h-320v64.002zM384.095 639.998h192v-192h-192v192zM320.095 704h320v-64.002h-320v64.002z" />
<glyph unicode="&#xe621;" d="M383.977 448.007h128v-64.023h-128v64.023zM447.977 512.007h128v-64.023h-128v64.023zM511.977 575.984h128v-64.023h-128v64.023zM576.023 639.984h128v-64.023h-128v64.023zM640.023 703.959h128v-64.023h-128v64.023zM511.977 319.982h128v-64.023h-128v64.023zM576.023 255.982h128v-64.023h-128v64.023zM640.023 191.959h128v-64.023h-128v64.023zM447.977 383.984h128v-64.023h-128v64.023zM320 704h64v-576h-64v576z" />
<glyph unicode="&#xe622;" d="M512 448h128v-64h-128v64zM448 512h128v-64h-128v64zM384 576h128v-64h-128v64zM320 640h128v-64h-128v64zM256 703.993h128v-64h-128v64zM384 320h128v-64h-128v64zM320 256.011h128v-64.023h-128v64.023zM256 192.011h128v-64.023h-128v64.023zM448 384h128v-64h-128v64zM640 704h64v-576h-64v576z" />
<glyph unicode="&#xe623;" d="M576.036 448.007h128v-64.023h-128v64.023zM512.036 512.007h128v-64.023h-128v64.023zM448.036 575.984h128v-64.023h-128v64.023zM383.989 639.984h128v-64.023h-128v64.023zM319.989 703.959h128v-64.023h-128v64.023zM448.036 319.982h128v-64.023h-128v64.023zM383.989 255.982h128v-64.023h-128v64.023zM319.989 191.959h128v-64.023h-128v64.023zM512.036 383.984h128v-64.023h-128v64.023z" />
<glyph unicode="&#xe624;" d="M319.989 448.007h128v-64.023h-128v64.023zM383.989 512.007h128v-64.023h-128v64.023zM447.989 575.984h128v-64.023h-128v64.023zM512.036 639.984h128v-64.023h-128v64.023zM576.036 703.959h128v-64.023h-128v64.023zM447.989 319.982h128v-64.023h-128v64.023zM512.036 255.982h128v-64.023h-128v64.023zM576.036 191.959h128v-64.023h-128v64.023zM383.989 383.984h128v-64.023h-128v64.023z" />
<glyph unicode="&#xe625;" d="M960 480.016c0-229.75-186.25-416-416-416s-416 186.25-416 416c0 229.75 186.25 416 416 416s416-186.25 416-416z" />
<glyph unicode="&#xe626;" d="M1024 448c0-282.77-229.23-512-512-512s-512 229.23-512 512c0 282.77 229.23 512 512 512s512-229.23 512-512z" />
<glyph unicode="&#xe627;" d="M544 832.582c94.174 0 182.712-36.674 249.303-103.265s103.265-155.129 103.265-249.303-36.674-182.712-103.265-249.303c-66.592-66.592-155.129-103.265-249.303-103.265s-182.712 36.674-249.303 103.265c-66.589 66.594-103.263 155.131-103.263 249.305s36.674 182.712 103.265 249.303 155.127 103.263 249.301 103.263zM544 896.016c-229.75 0-416-186.248-416-416s186.25-416 416-416 416 186.25 416 416-186.248 416-416 416v0z" />
<glyph unicode="&#xe628;" d="M512 896.566c119.817 0 232.462-46.66 317.184-131.382s131.382-197.367 131.382-317.184-46.66-232.462-131.382-317.184c-84.722-84.722-197.367-131.382-317.184-131.382s-232.462 46.66-317.184 131.382c-84.722 84.722-131.382 197.367-131.382 317.184s46.66 232.462 131.382 317.184 197.367 131.382 317.184 131.382zM512 960c-282.769 0-512-229.231-512-512s229.231-512 512-512 512 229.231 512 512-229.231 512-512 512v0z" />
<glyph unicode="&#xe629;" d="M704.283 480.016c0-88.522-71.761-160.283-160.283-160.283s-160.283 71.761-160.283 160.283c0 88.522 71.761 160.283 160.283 160.283s160.283-71.761 160.283-160.283z" />
<glyph unicode="&#xe62a;" d="M768.002 448.063c0-141.385-114.615-256-256-256s-256 114.615-256 256c0 141.385 114.615 256 256 256s256-114.615 256-256z" />
<glyph unicode="&#xe62b;" d="M192 768.016h64v-128h-64v128zM256 704.016h64v-128h-64v128zM320 640.018h64v-128h-64v128zM384 576.018h64v-128h-64v128zM448 512h64v-128h-64v128zM512 448.018h64v-128h-64v128zM576 384.063h64v-128h-64v128zM640.002 320.018h64v-128h-64v128zM704.002 255.982h64v-128h-64v128zM704.002 768.016h64v-128h-64v128zM640.002 704.016h64v-128h-64v128zM576.002 640.018h64v-128h-64v128zM512.002 576.018h64v-128h-64v128zM448.002 512h64v-128h-64v128zM384.002 448.018h64v-128h-64v128zM320.002 384.063h64v-128h-64v128zM256 320.018h64v-128h-64v128zM192 255.982h64v-128h-64v128z" />
<glyph unicode="&#xe62c;" d="M576.002 832.016c-176.731 0-320-143.269-320-320 0-72.036 23.808-138.507 63.977-191.989l-191.984-192.048v-127.964h128l171.506 228.497c44.383-23.296 94.897-36.497 148.503-36.497 176.731 0 320 143.269 320 320s-143.272 320-320.002 320zM575.495 299.864c-116.779 0-211.445 94.668-211.445 211.445s94.668 211.445 211.445 211.445 211.445-94.668 211.445-211.445-94.668-211.445-211.445-211.445z" />
<glyph unicode="&#xe62d;" d="M512 896c-247.423 0-448-200.577-448-448s200.577-448 448-448 448 200.577 448 448-200.577 448-448 448zM576 192h-128v128h128v-128zM576 384h-128v320h128v-320z" />
<glyph unicode="&#xe62e;" d="M960 448c0 247.423-200.577 448-448 448s-448-200.577-448-448 200.577-448 448-448 448 200.577 448 448zM576 576h-128v128h128v-128zM576 192h-128v320h128v-320z" />
<glyph unicode="&#xe62f;" d="M512 896c-247.423 0-448-200.577-448-448s200.577-448 448-448 448 200.577 448 448-200.577 448-448 448zM448.779 224.372l-191.964 189.204 65.629 68.921 124.815-112.447 248.354 270.148 73.805-69.806-320.639-346.019z" />
<glyph unicode="&#xe630;" d="M1013.357 104.854l-440.895 694.388c-27.72 43.66-93.202 43.66-120.923 0l-440.895-694.388c-29.107-45.844 4.923-104.867 60.461-104.867h881.791c55.538 0 89.568 59.023 60.461 104.867zM576 127.977h-128v128h128v-128zM576 319.977h-128v256h128v-256z" />
<glyph unicode="&#xe631;" d="M704.036 768.088l0.084-640.19-448.437 351.941z" />
<glyph unicode="&#xe632;" d="M320.029 768.095l-0.095-640.19 447.565 351.941z" />
<glyph unicode="&#xe633;" d="M448 565.019l117.019-117.019-117.019-117.019v234.038zM384 719.53v-543.058l271.528 271.528-271.528 271.53z" />
<glyph unicode="&#xe634;" d="M704 256h-384l384 384z" />
</font>
</defs>
</svg>
